#TITLE:I Can Walk on Water, I Can Fly;
#SUBTITLE:;
#ARTIST:Basshunter?;
#TITLETRANSLIT:;
#SUBTITLETRANSLIT:;
#ARTISTTRANSLIT:;
#CREDIT:;
#BANNER:icanwalkonwater_banner.jpg;
#BACKGROUND:icanwalkonwater_bg.jpg;
#LYRICSPATH:;
#CDTITLE:;
#MUSIC:05 I can walk on water, I can fly.mp3;
#OFFSET:0.720;
#SAMPLESTART:4.735;
#SAMPLELENGTH:12.000;
#SELECTABLE:YES;
#BPMS:0.000=550.000;
#STOPS:;
#BGCHANGES:;
// cache tags:
#FIRSTBEAT:11.000;
#LASTBEAT:112.833;
#SONGFILENAME:Songs/Music V.I.P ^_^/I Can Walk on Water, I Can Fly/05 I can walk on water, I can fly.sm;
#HASMUSIC:1;
#HASBANNER:1;
#MUSICLENGTH:11.363;
// end cache tags

//---------------dance-single - Blank----------------
#NOTES:
     dance-single:
     Blank:
     Easy:
     500:
     1.000,1.000,1.000,1.000,1.000,537.000,355.000,516.000,0.000,355.000:

0000
0000
0000
0000
,
0000
0000
0000
0000
,
0000
0000
0000
2002
,
3003
0000
0000
0000
,
0110
0000
0000
0000
1111
0000
0000
0000
1111
0000
0000
0000
1111
0000
0000
0000
1111
0000
0000
0000
1111
0000
0000
0000
1111
0000
0000
0000
1111
1000
0100
0010
,
0001
0000
0000
0000
0000
0000
0100
0000
0000
0000
0000
0000
0010
0000
0000
0000
0000
0000
1000
0000
0000
0000
0000
0000
0001
0000
0000
0000
0000
0000
0110
0000
0000
0000
0000
0000
0100
0000
0000
0000
0000
0000
1000
0000
0000
0000
0000
0000
0001
0000
0000
0000
0000
0000
1010
0000
0000
0000
0000
0000
0020
0000
0000
0000
0000
0000
2230
0000
0000
0000
0000
0000
3302
0000
0000
0000
0000
0000
0203
0000
0022
0000
0000
0000
0300
0000
0000
0000
0033
0000
0000
0000
0000
0000
0000
0000
1021
0000
0000
0000
0000
0000
0000
0000
0030
0000
0000
0000
0000
0000
0000
0000
2010
0000
0000
0000
0000
0000
0000
0000
3111
0000
0000
0000
0000
0000
1111
0000
0000
0000
0000
0000
0121
0000
0000
0000
0000
0000
0130
0000
0000
0000
0000
0000
0102
0000
0000
0000
0000
0000
0123
0000
0000
0000
0000
0000
0030
0000
0000
0000
0000
0000
0221
0000
0000
0000
0000
0000
2330
0000
0000
0000
0000
0000
3000
0000
0000
0000
0000
0000
1100
0000
0000
0000
0000
0000
0011
0000
0000
0000
0000
0000
,
1011
0010
1102
1203
0320
0032
2203
3320
2030
3100
2210
3312
0023
0031
1012
2023
3031
1002
0003
0100
0010
1110
1021
1131
0222
2333
3021
1132
0023
1130
0022
0100
,
0000
0033
0112
1200
0303
2100
0102
3023
0231
0310
1111
1111
1111
1111
1111
1000
0220
0330
0222
0303
2031
3221
0330
0120
1031
0010
1122
0233
0300
0102
0223
0331
,
1112
0203
2300
3022
2233
3300
0010
1112
2203
3310
1122
0033
1022
2233
3312
2203
3311
2120
3231
0311
0112
2203
3312
0023
2231
3311
1102
2223
3331
0102
0223
0331
,
2010
3102
2103
3000
1112
2203
3312
1223
0332
1223
0331
1102
2223
3330
2202
0020
0000
3300
0033
1022
1033
0011
0100
1111
1122
2033
3000
1102
0203
0311
2221
3332
,
2203
3302
2203
3312
0003
0221
0332
2203
3300
1022
0233
1312
2223
3330
1002
0203
1310
0110
0022
0233
0312
2203
3300
1000
1002
0113
0002
0223
0332
1203
0302
0103
,
0000
1000
0111
1102
0223
2330
3120
0031
0002
0223
0331
2100
3002
0023
2231
3310
0102
0023
0030
2211
0020
3331
0112
0103
0220
0030
0300
2200
3300
1122
2233
3310
,
0222
0000
0000
0000
0000
0000
2000
0000
0000
0000
0000
0000
0000
0000
0000
0000
0000
0000
3330
0000
0000
0000
0000
0000
2010
0000
0000
0000
0000
0000
3003
0000
0000
0000
0000
0000
0220
0000
0000
0000
0000
0000
0332
0000
0000
0000
0000
0000
1123
0000
0000
0000
0000
0000
0031
0000
1110
0000
0000
0000
0000
0000
0000
0000
1000
0000
0000
0000
0000
0000
0000
0000
0002
0000
0000
0000
0000
0000
0000
0000
2223
0000
0000
0000
0000
0000
0000
0000
3330
0000
0000
0000
0000
0000
0000
0000
1111
0000
0000
0000
0000
0000
0000
0000
0000
0000
0000
0000
0000
0000
0000
0000
0000
0000
0000
0000
0000
0000
0000
0000
1111
0000
0000
0000
0000
0000
0000
0000
0000
0000
0000
0000
0000
0000
0000
0000
0000
0000
0000
0000
0000
0000
0000
0000
1111
0000
0000
0000
0000
0000
0000
0000
1000
0000
0000
0000
0000
0000
0000
0000
0100
0000
0000
0000
0000
0000
0000
0000
0201
0000
0000
0000
0000
0000
0000
0000
0320
0000
0000
0000
0000
0000
0000
0000
2030
0000
0000
0000
0000
0000
0000
0000
,
3101
0010
1001
0010
0100
1000
0012
0103
1000
0100
0222
2333
3000
1002
0023
1032
2213
3300
1102
0023
0030
0102
2203
3312
,
0203
0000
0312
0000
0203
0000
0312
0000
1003
0000
1100
0000
0102
0000
2003
0000
3021
0000
1031
0000
0200
0000
0322
0000
0033
1102
0113
1110
1100
1100
2120
3031
0112
0003
0112
0023
2030
3002
0113
2200
3300
1002
0023
0132
0123
0030
0100
1110
,
0220
0332
0223
0331
0011
2211
3312
2203
3312
0223
0332
2203
3302
2203
3312
0203
0302
1203
0302
0203
0310
1002
0023
0032
0223
0332
0123
0231
0300
1000
2222
0000
0330
0220
0000
0000
3333
0000
0000
1000
0000
0000
0100
0000
0000
0010
0000
0000
,
1111
0110
1100
1001
1110
0102
0003
0220
0330
0001
2200
3312
0003
0201
2300
3122
,
2233
3310
0022
2233
3310
1122
2233
3311
1122
2233
3312
2023
3231
0312
2223
3331
,
0112
0023
2231
3310
2022
3233
1312
2203
3311
1112
2023
3231
0312
0223
2331
3102
,
2203
3312
2223
3331
1110
1110
0001
1102
2203
3310
1002
0023
0231
1310
0112
0003
,
1111
2201
3312
0123
1131
0010
0011
0022
0033
2200
3300
0120
0231
1012
0323
0130
,
2220
0000
0000
3330
0000
0000
1022
0000
0000
2033
0000
0000
3211
0000
0000
0312
0000
0000
2003
0000
0000
3211
0000
0000
1300
0000
0000
2220
0000
0000
3330
0000
0002
0110
1003
0000
0000
0000
0020
0000
2231
0000
3310
0000
1102
0000
0223
0000
,
0331
0112
0023
1031
2200
3301
1112
1223
0331
1102
2203
3311
1102
0023
2230
3300
1122
0033
1002
0223
0331
0020
2231
3302
,
0003
2211
3312
0223
0331
0110
2002
3123
2230
3302
1003
2201
3311
0210
2000
3321
0132
1103
2201
3320
2231
3311
0021
2230
,
3300
1100
0010
0012
1103
0000
2211
3312
0023
0031
0200
0311
1102
0003
1110
1102
1113
0000
1102
2203
3321
0131
1112
0003
,
0000
1110
1100
2220
3331
1110
1102
0003
2221
3331
0112
2203
3312
1113
2201
3302
0003
1010
0112
0023
0231
0300
0002
2113
,
3010
0100
2111
3000
0001
2221
3330
1112
0223
0331
0002
2223
3330
1102
2223
3331
1112
0023
2231
3312
0223
0331
1102
0223
,
1330
1021
2231
3310
0002
2223
3330
1112
2223
3331
1102
0023
2231
3312
2223
3331
1122
2233
3311
1002
2023
3231
0310
1002
,
0113
0101
0010
1000
0100
0111
0000
0000
0000
0000
0000
0000
0000
0000
0000
0000
0000
0000
0000
0000
0000
0000
0000
0000
;
